Представляем

M-1100

АКТИВНЫЙ ДВУНАПРАВЛЕННЫЙ МИКРОФОН С РЕГУЛИРОВКОЙ ЧУВСТВИТЕЛЬНОСТИ И НАПРАВЛЕННОСТИ ДЛЯ ЗАПИСИ ПЕРЕГОВОРОВ МЕЖДУ СОТРУДНИКАМИ И КЛИЕНТАМИ

РОЗНИЧНАЯ ЦЕНА 252,00 РУБЛЕЙ

Области применения двунаправленного активного микрофона STELBERRY M-1100

  • Запись переговоров между работником банка и клиентом;
  • Запись переговоров между оператором автозаправочной станции и клиентом;
  • Запись переговоров между кассирами и покупателями в торговых центрах с повышенным уровнем шума;
  • Запись переговоров между врачом и пациентом в больницах и поликлиниках;
  • Запись переговоров между врачом и пациентом в стоматологических клиниках;
  • Запись разговоров между консультантами и абонентами в салонах связи.

Активный микрофон нового поколения

 

Мы рады представить Вам абсолютно новую техническую разработку — активный двунаправленный микрофон STELBERRY M-1100, главной функцией которого является запись разговоров клиент-кассир, продавец-покупатель, врач-пациент, консультант-абонент.
Использование новейших разработок позволило создать двунаправленный микрофон с потрясающими показателями разборчивости речи собеседников, даже в очень шумных помещениях.
Данное устройство оснащено удобной функцией регулировки направленности и частоты, что позволяет настроить микрофон оптимальным для записи звука образом.

Для получения опытных образцов активных двунаправленных микрофонов STELBERRY M-1100 и STELBERRY M-1200 вы можете обратиться к нам по любым контактам, указанным здесь.

Сравнительные записи с двунаправленного микрофона STELBERRY M-1100 и обычного активного микрофона

Испытание микрофонов проводилось в максимально усложненных условиях, а именно торговом центре большой площади с высоким уровнем шума. Велась регистрация переговоров между продавцом и покупателем.
Как слышно на записях, обычный микрофон стороннего производителя не позволил получить даже минимально удовлетворительных результатов.

В отличие от простого микрофона, активный двунаправленный микрофон STELBERRY M-1100 прекрасно справился с этой задачей, несмотря на высокий уровень шума в испытуемом помещении.
Активный микрофон STELBERRY M-1100 обеспечивает высокое качество записи, речь собеседников четкая и разборчивая.

Двунаправленный микрофон STELBERRY M-1100

Параметры аудиозаписи
Format : PCM
Duration : 39s 218ms
Bit rate mode : Constant
Bit rate : 705.6 Kbps
Sampling rate : 44.1 KHz
Bit depth : 16 bits
Stream size : 3.30 MiB

Всенаправленный микрофон стороннего производителя

Параметры аудиозаписи
Format : PCM
Duration : 16s 930ms
Bit rate mode : Constant
Bit rate : 705.6 Kbps
Sampling rate : 44.1 KHz
Bit depth : 16 bits
Stream size : 1.42 MiB

Двунаправленный микрофон STELBERRY M-1100

Параметры аудиозаписи
Format : PCM
Duration : 41s 585ms
Bit rate mode : Constant
Bit rate : 705.6 Kbps
Sampling rate : 44.1 KHz
Bit depth : 16 bits
Stream size : 3.50 MiB

Всенаправленный микрофон стороннего производителя

Параметры аудиозаписи
Format : PCM
Duration : 26s 827ms
Bit rate mode : Constant
Bit rate : 705.6 Kbps
Sampling rate : 44.1 KHz
Bit depth : 16 bits
Stream size : 2.26 MiB

Если Ваш браузер не поддерживает воспроизведение формата .wav Вы можете cкачать пример работы двунаправленного активного микрофона STELBERRY M-1100 и всенаправленного микрофона стороннего производителя одним архивом

ТЕХНИЧЕСКИЕ ХАРАКТЕРИСТИКИ
двунаправленного микрофона
STELBERRY M-1100

ПОЛОСА ПРОПУСКАНИЯ (после обработки) 300….4000 Гц
ОСЛАБЛЕНИЕ ОКРУЖАЮЩИХ ШУМОВ до -26 дБ (20 раз)
ДИАПАЗОН РЕГУЛИРОВКИ ЧУВСТВИТЕЛЬНОСТИ -15…+16 дБ (35 раз)
АКУСТИЧЕСКАЯ ДАЛЬНОСТЬ до 3 метров
ВНЕШНЕЕ ЗВУКОВОЕ ДАВЛЕНИЕ до 94 дБ SPL
ЧАСТОТА ОЦИФРОВКИ 44100 Гц
ДИСКРЕТИЗАЦИЯ 16 бит
ОТНОШЕНИЕ СИГНАЛ/ШУМ 63 дБ
ПИТАНИЕ 5…48 Вольт
ПОТРЕБЛЕНИЕ 15 мА
ГАБАРИТЫ 100х48х6 мм
ТЕМПЕРАТУРНЫЙ ДИАПАЗОН 0…+50 °С

Диаграмма направленности микрофона
STELBERRY M-1100
при максимальном значении регулировки

Диаграмма направленности микрофона STELBERRY M-1100
Вверх